Jodhaa Akbar (2008) 720p BDRip x264 [Hindi + Tamil + Telugu] ESub MovCr torrent download

seeders: 37
leechers: 154
updated:
Added ago by MovCr ***** in Movies
Torrent Downloaded 10 times.
Info Hash: AD378F8D99F1893CC6A23E210514D92CC86BFD3F


Torrent Files

Jodhaa Akbar (2008) 720p - BDRip - x264 - [Hindi + Tamil + Telugu] - ESub - MovCr (Size: 1.8 GB)
  Jodhaa Akbar (2008) 720p - BDRip - x264 - [Hindi + Tamil + Telugu] - ESub - MovCr 1.8 GB

Torrent Description



http://movcr.com


Jodhaa Akbar (2008) 720p - BDRip - x264 - [Hindi + Tamil + Telugu] - ESub - MovCr


Video
ID : 1
Format : AVC
Format/Info : Advanced Video Codec
Format profile : [email protected]
Format settings, CABAC : Yes
Format settings, ReFrames : 4 frames
Codec ID : V_MPEG4/ISO/AVC
Duration : 3 h 33 min
Bit rate : 905 kb/s
Width : 1 280 pixels
Height : 544 pixels
Display aspect ratio : 2.35:1
Frame rate mode : Constant
Frame rate : 24.000 FPS
Color space : YUV
Chroma subsampling : 4:2:0
Bit depth : 8 bits
Scan type : Progressive
Bits/(Pixel*Frame) : 0.054
Stream size : 1.35 GiB (74%)
Title : www.MovCr.com
Writing library : x264 core 148 r2744 b97ae06
Encoding settings : cabac=1 / ref=3 / deblock=1:0:0 / analyse=0x3:0x113 / me=hex / subme=7 / psy=1 / psy_rd=1.00:0.00 / mixed_ref=1 / me_range=16 / chroma_me=1 / trellis=1 / 8x8dct=1 / cqm=0 / deadzone=21,11 / fast_pskip=1 / chroma_qp_offset=-2 / threads=17 / lookahead_threads=2 / sliced_threads=0 / nr=0 / decimate=1 / interlaced=0 / bluray_compat=0 / constrained_intra=0 / bframes=3 / b_pyramid=2 / b_adapt=1 / b_bias=0 / direct=1 / weightb=1 / open_gop=0 / weightp=2 / keyint=240 / keyint_min=24 / scenecut=40 / intra_refresh=0 / rc_lookahead=40 / rc=2pass / mbtree=1 / bitrate=905 / ratetol=1.0 / qcomp=0.60 / qpmin=0 / qpmax=69 / qpstep=4 / cplxblur=20.0 / qblur=0.5 / ip_ratio=1.40 / aq=1:1.00
Language : English
Default : Yes
Forced : No

Audio #1
ID : 2
Format : MPEG Audio
Format version : Version 1
Format profile : Layer 3
Mode : Joint stereo
Mode extension : MS Stereo
Codec ID : A_MPEG/L3
Codec ID/Hint : MP3
Duration : 3 h 33 min
Bit rate mode : Constant
Bit rate : 96.0 kb/s
Channel(s) : 2 channels
Sampling rate : 48.0 kHz
Frame rate : 41.667 FPS (1152 spf)
Compression mode : Lossy
Stream size : 147 MiB (8%)
Title : www.MovCr.com
Writing library : LAME3.99.5ªªªªª@×2z
Language : Hindi
Default : Yes
Forced : No

Audio #2
ID : 3
Format : MPEG Audio
Format version : Version 1
Format profile : Layer 3
Mode : Joint stereo
Codec ID : A_MPEG/L3
Codec ID/Hint : MP3
Duration : 3 h 33 min
Bit rate mode : Constant
Bit rate : 128 kb/s
Channel(s) : 2 channels
Sampling rate : 44.1 kHz
Frame rate : 38.281 FPS (1152 spf)
Compression mode : Lossy
Stream size : 196 MiB (10%)
Title : www.MovCr.com
Writing library : LAME3.99.5
Language : Tamil
Default : No
Forced : No

Audio #3
ID : 4
Format : MPEG Audio
Format version : Version 1
Format profile : Layer 3
Mode : Joint stereo
Mode extension : MS Stereo
Codec ID : A_MPEG/L3
Codec ID/Hint : MP3
Duration : 3 h 33 min
Bit rate mode : Constant
Bit rate : 96.0 kb/s
Channel(s) : 2 channels
Sampling rate : 48.0 kHz
Frame rate : 41.667 FPS (1152 spf)
Compression mode : Lossy
Stream size : 147 MiB (8%)
Title : www.MovCr.com
Writing library : LAME3.99.5
Language : Telugu
Default : No
Forced : No

Text
ID : 5
Format : UTF-8
Codec ID : S_TEXT/UTF8
Codec ID/Info : UTF-8 Plain Text
Duration : 3 h 23 min
Bit rate : 38 b/s
Count of elements : 1528
Stream size : 57.7 KiB (0%)
Title : www.MovCr.com
Language : English
Default : No
Forced : No



Related Torrents

torrent name size age seed leech
848.72 MB 30 seconds 596 292
1.1 GB 1 minute 724 324
209.2 MB 1 minute 451 421
397.4 MB 1 minute 504 489
16.7 MB 1 minute 192 458

Sharing Widget


Download torrent
1.8 GB
seeders:1214
leechers:386
Jodhaa Akbar (2008) 720p - BDRip - x264 - [Hindi + Tamil + Telugu] - ESub - MovCr



To share this torrent use the code below and insert it into comments, status messages, forum posts or your signature.

Torrent: Jodhaa Akbar (2008) 720p - BDRip - x264 - [Hindi + Tamil + Telugu] - ESub - MovCr

Comments

Latest Searches